(2016). Торрент без тормозов 1080


2016 hd 720, 1080

vtorrents.net

: : A fond : 2016: : : , , , , , , , , ,

IMDB: 5.6/10 (459 ) : 6.0/10 (3 537 )

:, , . - , . . !

: , : 1 31 : | iTunes

: AVI: BDRip

1125

593

udp://shubt.net:2710

193 2 109

udp://bt.megapeer.org:6969

186 3 2451

udp://kaztorka.org:2710

12 11 89

http://tracker.filetracker.pl:8089/announce

66 76 67

http://tracker2.wasabii.com.tw:6969/announce

50 50 45

http://tracker.grepler.com:6969/announce

64 35 33

http://125.227.35.196:6969/announce

88 16 88

http://tracker.tiny-vps.com:6969/announce

31 89 38

http://87.248.186.252:8080/announce

3 1 23

http://210.244.71.25:6969/announce

24 85 59

http://46.4.109.148:6969/announce

52 37 12

udp://46.148.18.250:2710

202 2 108

http://tracker.dler.org:6969/announce

65 62 68

udp://[2001:67c:28f8:92::1111:1]:2710

34 65 74

udp://ipv6.leechers-paradise.org:6969

55 59 96

1,42 Gb

3407

A.fond.2016.BDRip.1.42Gb.MegaPeer.avi (1,42 Gb)

957

863

udp://shubt.net:2710

130 1 71

udp://tracker.openbittorrent.com:80/announce

90 30 49

udp://tracker.publicbt.com:80/announce

51 74 29

http://tracker.filetracker.pl:8089/announce

24 52 57

http://tracker2.wasabii.com.tw:6969/announce

43 87 61

http://tracker.grepler.com:6969/announce

23 93 62

http://125.227.35.196:6969/announce

68 61 21

http://tracker.tiny-vps.com:6969/announce

89 98 19

http://87.248.186.252:8080/announce

10 55 17

http://210.244.71.25:6969/announce

98 58 68

http://46.4.109.148:6969/announce

55 67 98

udp://46.148.18.250:2710

137 11 71

http://tracker.dler.org:6969/announce

42 42 76

udp://[2001:67c:28f8:92::1111:1]:2710

85 100 15

udp://ipv6.leechers-paradise.org:6969

12 34 38

5,03 Gb

267

A.Fond.BDRip.720p.ExKinoRay.mkv (5,03 Gb)

880

734

udp://shubt.net:2710

53 2 36

udp://tracker.openbittorrent.com:80/announce

58 72 68

udp://tracker.publicbt.com:80/announce

81 53 73

http://tracker.filetracker.pl:8089/announce

98 88 20

http://tracker2.wasabii.com.tw:6969/announce

60 26 19

http://tracker.grepler.com:6969/announce

46 44 100

http://125.227.35.196:6969/announce

55 99 33

http://tracker.tiny-vps.com:6969/announce

41 66 92

http://87.248.186.252:8080/announce

5 1 93

http://210.244.71.25:6969/announce

75 52 30

http://46.4.109.148:6969/announce

89 35 51

udp://46.148.18.250:2710

55 2 36

http://tracker.dler.org:6969/announce

47 74 10

udp://[2001:67c:28f8:92::1111:1]:2710

53 21 18

udp://ipv6.leechers-paradise.org:6969

64 99 81

10,06 Gb

168

A.Fond.BDRip.1080p.ExKinoRay.mkv (10,06 Gb)

/ À fond (2016) Blu-Ray Remux 1080p » HDReactor.club

: , , . - , . . !

: Blu-Ray Remux (1080p): MPEG-4 AVC, 35929 /, 1920x1080: (AC3, 6 ch, 384 /), (DTS-HD MA, 6 ch, 3904 /): 01:31:14: - (iTunes)

Disc Title: A.Fond.2016.BDREMUX.1080p.ExKinoRayDisc Size: 28 958 944 292 bytesProtection: AACSBD-Java: NoBDInfo: 0.5.8

Notes:

BDINFO HOME:Cinema Squidhttp://www.cinemasquid.com/blu-ray/tools/bdinfo

INCLUDES FORUMS REPORT FOR:AVS Forum Blu-ray Audio and Video Specifications Threadhttp://www.avsforum.com/avs-vb/showthread.php?t=1155731

********************PLAYLIST: 00000.MPLS********************

Total Video Title Codec Length Movie Size Disc Size Bitrate Bitrate Main Audio Track Secondary Audio Track ----- ------ ------- -------------- -------------- ------- ------- ------------------ --------------------- 00000.MPLS AVC 1:31:14 28 958 857 536 28 958 944 292 42,32 35,93 DD AC3 5.1 384Kbps DISC INFO: Disc Title: A.Fond.2016.BDREMUX.1080p.ExKinoRay Disc Size: 28 958 944 292 bytes Protection: AACS BD-Java: No BDInfo: 0.5.8 PLAYLIST REPORT: Name: 00000.MPLS Length: 1:31:14.760 (h:m:s.ms) Size: 28 958 857 536 bytes Total Bitrate: 42,32 Mbps VIDEO: Codec Bitrate Description ----- ------- ----------- MPEG-4 AVC Video 35929 kbps 1080p / 23,976 fps / 16:9 / High Profile 4.1 AUDIO: Codec Language Bitrate Description ----- -------- ------- ----------- Dolby Digital Audio Russian 384 kbps 5.1 / 48 kHz / 384 kbps / DN -4dB DTS-HD Master Audio French 3904 kbps 5.1 / 48 kHz / 3904 kbps / 24-bit (DTS Core: 5.1 / 48 kHz / 1509 kbps / 24-bit) FILES: Name Time In Length Size Total Bitrate ---- ------- ------ ---- ------------- 00000.M2TS 0:00:00.000 1:31:14.760 28 958 857 536 42 316 CHAPTERS: Number Time In Length Avg Video Rate Max 1-Sec Rate Max 1-Sec Time Max 5-Sec Rate Max 5-Sec Time Max 10Sec Rate Max 10Sec Time Avg Frame Size Max Frame Size Max Frame Time ------ ------- ------ -------------- -------------- -------------- -------------- -------------- -------------- -------------- -------------- -------------- -------------- 1 0:00:00.000 0:10:33.341 35 699 kbps 56 555 kbps 00:06:44.695 42 206 kbps 00:10:17.283 40 646 kbps 00:07:20.356 186 106 bytes 888 212 bytes 00:06:53.830 2 0:10:33.341 0:08:04.814 38 368 kbps 58 280 kbps 00:11:44.870 42 156 kbps 00:13:49.036 40 864 kbps 00:10:58.157 200 030 bytes 888 019 bytes 00:10:35.176 3 0:18:38.155 0:07:23.402 37 585 kbps 56 555 kbps 00:19:01.807 43 217 kbps 00:20:07.164 40 808 kbps 00:20:02.743 195 953 bytes 810 829 bytes 00:26:01.518 4 0:26:01.557 0:07:33.664 38 378 kbps 56 878 kbps 00:32:30.073 42 175 kbps 00:30:22.403 40 904 kbps 00:26:58.825 200 086 bytes 912 818 bytes 00:33:33.261 5 0:33:35.221 0:06:15.458 38 354 kbps 57 968 kbps 00:35:20.910 42 449 kbps 00:38:03.406 40 664 kbps 00:35:20.910 199 958 bytes 864 762 bytes 00:37:45.513 6 0:39:50.679 0:09:10.759 38 226 kbps 57 279 kbps 00:45:07.371 42 378 kbps 00:41:56.347 40 645 kbps 00:47:28.303 199 295 bytes 914 859 bytes 00:42:34.301 7 0:49:01.438 0:07:52.680 38 117 kbps 56 367 kbps 00:52:43.285 42 139 kbps 00:53:46.264 40 723 kbps 00:50:44.750 198 725 bytes 864 274 bytes 00:51:30.504 8 0:56:54.118 0:07:24.277 38 466 kbps 55 328 kbps 01:03:10.495 41 917 kbps 01:03:10.495 40 892 kbps 00:57:20.562 200 544 bytes 916 269 bytes 01:01:54.001 9 1:04:18.396 0:07:13.807 37 000 kbps 54 891 kbps 01:09:22.783 41 887 kbps 01:10:39.360 40 542 kbps 01:05:32.261 192 901 bytes 903 473 bytes 01:06:36.701 10 1:11:32.203 0:07:27.864 38 263 kbps 58 529 kbps 01:11:53.976 42 280 kbps 01:18:00.675 40 957 kbps 01:16:07.854 199 484 bytes 872 679 bytes 01:18:03.345 11 1:19:00.068 0:06:49.326 37 420 kbps 52 657 kbps 01:20:41.127 42 403 kbps 01:24:50.210 40 651 kbps 01:24:45.330 195 090 bytes 910 986 bytes 01:22:42.332 12 1:25:49.394 0:05:25.366 7 232 kbps 36 398 kbps 01:26:12.292 30 893 kbps 01:26:11.749 27 918 kbps 01:26:09.914 37 720 bytes 333 549 bytes 01:26:35.732 STREAM DIAGNOSTICS: File PID Type Codec Language Seconds Bitrate Bytes Packets ---- --- ---- ----- -------- -------------- -------------- ------------- ----- 00000.M2TS 4113 (0x1011) 0x1B AVC 5474,636 35 930 24 588 097 046 133 708 796 00000.M2TS 4352 (0x1100) 0x81 AC3 rus (Russian) 5474,636 384 262 789 632 1 539 783 00000.M2TS 4353 (0x1101) 0x86 DTS-HD MA fra (French) 5474,636 3 904 2 671 520 612 15 375 936

QUICK SUMMARY:

Disc Title: A.Fond.2016.BDREMUX.1080p.ExKinoRayDisc Size: 28 958 944 292 bytesProtection: AACSBD-Java: NoPlaylist: 00000.MPLSSize: 28 958 857 536 bytesLength: 1:31:14.760Total Bitrate: 42,32 MbpsVideo: MPEG-4 AVC Video / 35929 kbps / 1080p / 23,976 fps / 16:9 / High Profile 4.1Audio: Russian / Dolby Digital Audio / 5.1 / 48 kHz / 384 kbps / DN -4dBAudio: French / DTS-HD Master Audio / 5.1 / 48 kHz / 3904 kbps / 24-bit (DTS Core: 5.1 / 48 kHz / 1509 kbps / 24-bit)

hdpicture.ru

rutor.org :: Без тормозов / À fond (2016) BDRip 1080p

main-rutor.org

Информация о фильмеНазвание: Без тормозовОригинальное название: À fondГод выхода: 2016Жанр: комедияРежиссер: Николас БенамуВ ролях: Хосе Гарсия, Андре Дюссолье, Каролин Виньо, Жозефин Каллиз, Стилан Лекай, Шарлотта Габрис, Венсан Дезанья, Флоренс Форести, Жером Коммандёр, Владимир Хубар

О фильме: Взяв напрокат самый навороченный семейный автомобиль, глава семейства отправляется в долгожданный отпуск со своей женой, детьми и отцом. Но когда новомодный круиз-контроль вдруг полностью отключает тормоза, каникулы перестают быть томными. Пристегните ремни. Вас ждет очень веселая поездочка!

Выпущено: Франция, Македония / Chic Films, La Petite ReineПродолжительность: 01:31:15Озвучивание: Дублированное [iTunes]

ФайлФормат: MKVВидео: AVC/H.264, 1920x800, ~8776 кbpsАудио: AC3, 6 ch, 384 Kbps - РусскийАудио: DTS, 6 ch, 1509 Kbps - Французский

Mediainfo:

General Unique ID : 213738458933286858607960228106967106389 (0xA0CC87A31D505FB49786C734237AC355) Complete name : E:Bez.tormozov(2016)BDRip.1080p.mkv Format : Matroska Format version : Version 4 / Version 2 File size : 6.80 GiB Duration : 1 h 31 min Overall bit rate : 10.7 Mb/s Encoded date : UTC 2017-05-01 21:19:40 Writing application : mkvmerge v11.0.0 ('Alive') 64bit Writing library : libebml v1.3.4 + libmatroska v1.4.5

Video ID : 1 Format : AVC Format/Info : Advanced Video Codec Format profile : [email protected] Format settings, CABAC : Yes Format settings, ReFrames : 5 frames Codec ID : V_MPEG4/ISO/AVC Duration : 1 h 31 min Bit rate : 8 776 kb/s Width : 1 920 pixels Height : 800 pixels Display aspect ratio : 2.40:1 Frame rate mode : Constant Frame rate : 23.976 (24000/1001) FPS Color space : YUV Chroma subsampling : 4:2:0 Bit depth : 8 bits Scan type : Progressive Bits/(Pixel*Frame) : 0.238 Stream size : 5.59 GiB (82%) Writing library : x264 core 148 r2744 b97ae06 Encoding settings : cabac=1 / ref=5 / deblock=1:0:0 / analyse=0x3:0x113 / me=umh / subme=8 / psy=1 / psy_rd=1.00:0.00 / mixed_ref=1 / me_range=16 / chroma_me=1 / trellis=1 / 8x8dct=1 / cqm=0 / deadzone=21,11 / fast_pskip=1 / chroma_qp_offset=-2 / threads=18 / lookahead_threads=3 / sliced_threads=0 / nr=0 / decimate=1 / interlaced=0 / bluray_compat=0 / constrained_intra=0 / bframes=3 / b_pyramid=2 / b_adapt=2 / b_bias=0 / direct=3 / weightb=1 / open_gop=0 / weightp=2 / keyint=240 / keyint_min=24 / scenecut=40 / intra_refresh=0 / rc_lookahead=50 / rc=2pass / mbtree=1 / bitrate=8776 / ratetol=1.0 / qcomp=0.60 / qpmin=0 / qpmax=69 / qpstep=4 / cplxblur=20.0 / qblur=0.5 / ip_ratio=1.40 / aq=1:1.00 Language : English Default : Yes Forced : No

Audio #1 ID : 2 Format : AC-3 Format/Info : Audio Coding 3 Mode extension : CM (complete main) Format settings, Endianness : Big Codec ID : A_AC3 Duration : 1 h 31 min Bit rate mode : Constant Bit rate : 384 kb/s Channel(s) : 6 channels Channel positions : Front: L C R, Side: L R, LFE Sampling rate : 48.0 kHz Frame rate : 31.250 FPS (1536 spf) Bit depth : 16 bits Compression mode : Lossy Stream size : 251 MiB (4%) Language : Russian Default : Yes Forced : No

Audio #2 ID : 3 Format : DTS Format/Info : Digital Theater Systems Mode : 16 Format settings, Endianness : Big Codec ID : A_DTS Duration : 1 h 31 min Bit rate mode : Constant Bit rate : 1 509 kb/s Channel(s) : 6 channels Channel positions : Front: L C R, Side: L R, LFE Sampling rate : 48.0 kHz Frame rate : 93.750 FPS (512 spf) Bit depth : 24 bits Compression mode : Lossy Stream size : 985 MiB (14%) Language : French Default : No Forced : No

Menu 00:00:00.000 : en:00:00:00.000 00:10:33.341 : en:00:10:33.341 00:18:38.159 : en:00:18:38.159 00:26:01.560 : en:00:26:01.560 00:33:35.222 : en:00:33:35.222 00:39:50.680 : en:00:39:50.680 00:49:01.438 : en:00:49:01.438 00:56:54.119 : en:00:56:54.119 01:04:18.396 : en:01:04:18.396 01:11:32.205 : en:01:11:32.205 01:19:00.069 : en:01:19:00.069 01:25:49.394 : en:01:25:49.394

/ À fond (2016) Blu-Ray 1080p » HDReactor.club

: , , . - , . . !

: Blu-Ray (1080p): MPEG-4 AVC, 35929 /, 1920x1080, 23.976 /: , (AC3, 6 ch, 384 /), (DTS-HD MA, 6 ch, 3904 /): 01:31:14: - (iTunes):

Disc Title: A_FOND_BLUEBIRDDisc Size: 39 453 990 867 bytesProtection: AACSBD-Java: NoExtras: 50Hz ContentBDInfo: 0.5.8

Notes:

BDINFO HOME:Cinema Squidhttp://www.cinemasquid.com/blu-ray/tools/bdinfo

INCLUDES FORUMS REPORT FOR:AVS Forum Blu-ray Audio and Video Specifications Threadhttp://www.avsforum.com/avs-vb/showthread.php?t=1155731

********************PLAYLIST: 00001.MPLS********************

Total Video Title Codec Length Movie Size Disc Size Bitrate Bitrate Main Audio Track Secondary Audio Track----- ------ ------- -------------- -------------- ------- ------- ------------------ ---------------------00001.MPLS AVC 1:31:14 29 284 176 192 39 453 990 867 42,79 35,93 DTS-HD Master 5.1 3904Kbps (48kHz/24-bit)

DISC INFO:

Disc Title: A_FOND_BLUEBIRDDisc Size: 39 453 990 867 bytesProtection: AACSBD-Java: NoExtras: 50Hz ContentBDInfo: 0.5.8

PLAYLIST REPORT:

Name: 00001.MPLSLength: 1:31:14.760 (h:m:s.ms)Size: 29 284 176 192 bytesTotal Bitrate: 42,79 Mbps

VIDEO:

Codec Bitrate Description ----- ------- ----------- MPEG-4 AVC Video 35929 kbps 1080p / 23,976 fps / 16:9 / High Profile 4.1

AUDIO:

Codec Language Bitrate Description ----- -------- ------- ----------- DTS-HD Master Audio French 3904 kbps 5.1 / 48 kHz / 3904 kbps / 24-bit (DTS Core: 5.1 / 48 kHz / 1509 kbps / 24-bit)Dolby Digital Audio Russian 384 kbps 5.1 / 48 kHz / 384 kbps / DN -4dBDolby Digital Audio Ukrainian 384 kbps 5.1 / 48 kHz / 384 kbps / DN -4dB

SUBTITLES:

Codec Language Bitrate Description ----- -------- ------- ----------- Presentation Graphics French 38,179 kbps

FILES:

Name Time In Length Size Total Bitrate ---- ------- ------ ---- ------------- 00000.M2TS 0:00:00.000 1:31:14.760 29 284 176 192 42 791

CHAPTERS:

Number Time In Length Avg Video Rate Max 1-Sec Rate Max 1-Sec Time Max 5-Sec Rate Max 5-Sec Time Max 10Sec Rate Max 10Sec Time Avg Frame Size Max Frame Size Max Frame Time ------ ------- ------ -------------- -------------- -------------- -------------- -------------- -------------- -------------- -------------- -------------- -------------- 1 0:00:00.000 0:10:33.341 35 699 kbps 56 555 kbps 00:06:44.695 42 206 kbps 00:10:17.283 40 646 kbps 00:07:20.356 186 106 bytes 888 212 bytes 00:06:53.830 2 0:10:33.341 0:08:04.815 38 368 kbps 58 280 kbps 00:11:44.870 42 156 kbps 00:13:49.036 40 864 kbps 00:10:58.157 200 030 bytes 888 019 bytes 00:10:35.176 3 0:18:38.157 0:07:23.401 37 585 kbps 56 555 kbps 00:19:01.807 43 217 kbps 00:20:07.164 40 808 kbps 00:20:02.743 195 953 bytes 810 829 bytes 00:26:01.518 4 0:26:01.558 0:07:33.663 38 378 kbps 56 878 kbps 00:32:30.073 42 175 kbps 00:30:22.403 40 904 kbps 00:26:58.825 200 086 bytes 912 818 bytes 00:33:33.261 5 0:33:35.221 0:06:15.458 38 354 kbps 57 968 kbps 00:35:20.910 42 449 kbps 00:38:03.406 40 664 kbps 00:35:20.910 199 958 bytes 864 762 bytes 00:37:45.513 6 0:39:50.679 0:09:10.759 38 226 kbps 57 279 kbps 00:45:07.371 42 378 kbps 00:41:56.347 40 645 kbps 00:47:28.303 199 295 bytes 914 859 bytes 00:42:34.301 7 0:49:01.438 0:07:52.680 38 117 kbps 56 367 kbps 00:52:43.285 42 139 kbps 00:53:46.264 40 723 kbps 00:50:44.750 198 725 bytes 864 274 bytes 00:51:30.504 8 0:56:54.118 0:07:24.277 38 466 kbps 55 328 kbps 01:03:10.495 41 917 kbps 01:03:10.495 40 892 kbps 00:57:20.562 200 544 bytes 916 269 bytes 01:01:54.001 9 1:04:18.396 0:07:13.807 37 000 kbps 54 891 kbps 01:09:22.783 41 887 kbps 01:10:39.360 40 542 kbps 01:05:32.261 192 901 bytes 903 473 bytes 01:06:36.701 10 1:11:32.203 0:07:27.864 38 263 kbps 58 529 kbps 01:11:53.976 42 280 kbps 01:18:00.675 40 957 kbps 01:16:07.854 199 484 bytes 872 679 bytes 01:18:03.345 11 1:19:00.068 0:06:49.326 37 420 kbps 52 657 kbps 01:20:41.127 42 403 kbps 01:24:50.210 40 651 kbps 01:24:45.330 195 090 bytes 910 986 bytes 01:22:42.332 12 1:25:49.394 0:05:25.366 7 232 kbps 36 398 kbps 01:26:12.292 30 893 kbps 01:26:11.749 27 918 kbps 01:26:09.914 37 720 bytes 333 549 bytes 01:26:35.732

STREAM DIAGNOSTICS:

File PID Type Codec Language Seconds Bitrate Bytes Packets ---- --- ---- ----- -------- -------------- -------------- ------------- ----- 00000.M2TS 4113 (0x1011) 0x1B AVC 5474,636 35 930 24 588 097 046 133 708 796 00000.M2TS 4352 (0x1100) 0x86 DTS-HD MA fra (French) 5474,636 3 904 2 671 520 612 15 375 936 00000.M2TS 4353 (0x1101) 0x81 AC3 rus (Russian) 5474,636 384 262 789 632 1 539 783 00000.M2TS 4354 (0x1102) 0x81 AC3 ukr (Ukrainian) 5474,636 384 262 791 168 1 539 792 00000.M2TS 4608 (0x1200) 0x90 PGS fra (French) 5474,636 38 26 127 949 154 572

QUICK SUMMARY:

Disc Title: A_FOND_BLUEBIRDDisc Size: 39 453 990 867 bytesProtection: AACSBD-Java: NoPlaylist: 00001.MPLSSize: 29 284 176 192 bytesLength: 1:31:14.760Total Bitrate: 42,79 MbpsVideo: MPEG-4 AVC Video / 35929 kbps / 1080p / 23,976 fps / 16:9 / High Profile 4.1Audio: French / DTS-HD Master Audio / 5.1 / 48 kHz / 3904 kbps / 24-bit (DTS Core: 5.1 / 48 kHz / 1509 kbps / 24-bit)Audio: Russian / Dolby Digital Audio / 5.1 / 48 kHz / 384 kbps / DN -4dBAudio: Ukrainian / Dolby Digital Audio / 5.1 / 48 kHz / 384 kbps / DN -4dBSubtitle: French / 38,179 kbps

********************PLAYLIST: 00002.MPLS********************

Total Video Title Codec Length Movie Size Disc Size Bitrate Bitrate Main Audio Track Secondary Audio Track----- ------ ------- -------------- -------------- ------- ------- ------------------ ---------------------00002.MPLS AVC 0:34:01 9 789 441 408 39 453 990 867 38,37 35,87 DTS 2.0 768Kbps (48kHz/16-bit)

DISC INFO:

Disc Title: A_FOND_BLUEBIRDDisc Size: 39 453 990 867 bytesProtection: AACSBD-Java: NoExtras: 50Hz ContentBDInfo: 0.5.8

PLAYLIST REPORT:

Name: 00002.MPLSLength: 0:34:01.280 (h:m:s.ms)Size: 9 789 441 408 bytesTotal Bitrate: 38,37 Mbps

VIDEO:

Codec Bitrate Description ----- ------- ----------- MPEG-4 AVC Video 35867 kbps 1080i / 25 fps / 16:9 / High Profile 4.1

AUDIO:

Codec Language Bitrate Description ----- -------- ------- ----------- DTS Audio French 768 kbps 2.0 / 48 kHz / 768 kbps / 16-bit

FILES:

Name Time In Length Size Total Bitrate ---- ------- ------ ---- ------------- 00001.M2TS 0:00:00.000 0:34:01.280 9 789 441 408 38 365

CHAPTERS:

Number Time In Length Avg Video Rate Max 1-Sec Rate Max 1-Sec Time Max 5-Sec Rate Max 5-Sec Time Max 10Sec Rate Max 10Sec Time Avg Frame Size Max Frame Size Max Frame Time ------ ------- ------ -------------- -------------- -------------- -------------- -------------- -------------- -------------- -------------- -------------- -------------- 1 0:00:00.000 0:10:25.880 35 462 kbps 51 008 kbps 00:01:17.279 42 622 kbps 00:07:15.240 40 364 kbps 00:08:50.800 177 298 bytes 452 985 bytes 00:07:48.800 2 0:10:25.880 0:12:09.959 35 289 kbps 50 438 kbps 00:22:28.440 41 887 kbps 00:21:53.119 40 393 kbps 00:21:19.840 176 446 bytes 416 465 bytes 00:11:06.960 3 0:22:35.840 0:11:25.440 36 856 kbps 53 661 kbps 00:28:04.440 41 911 kbps 00:33:39.160 40 468 kbps 00:30:55.960 184 311 bytes 550 336 bytes 00:31:45.239

STREAM DIAGNOSTICS:

File PID Type Codec Language Seconds Bitrate Bytes Packets ---- --- ---- ----- -------- -------------- -------------- ------------- ----- 00001.M2TS 4113 (0x1011) 0x1B AVC 2041,160 35 870 9 152 121 724 49 770 065 00001.M2TS 4352 (0x1100) 0x82 DTS fra (French) 2041,160 768 195 962 880 1 148 220

QUICK SUMMARY:

Disc Title: A_FOND_BLUEBIRDDisc Size: 39 453 990 867 bytesProtection: AACSBD-Java: NoPlaylist: 00002.MPLSSize: 9 789 441 408 bytesLength: 0:34:01.280Total Bitrate: 38,37 MbpsVideo: MPEG-4 AVC Video / 35867 kbps / 1080i / 25 fps / 16:9 / High Profile 4.1Audio: French / DTS Audio / 2.0 / 48 kHz / 768 kbps / 16-bit

********************PLAYLIST: 00007.MPLS********************

Total Video Title Codec Length Movie Size Disc Size Bitrate Bitrate Main Audio Track Secondary Audio Track----- ------ ------- -------------- -------------- ------- ------- ------------------ ---------------------00007.MPLS AVC 0:01:06 204 955 200 39 453 990 867 24,52 21,76 DTS 2.0 768Kbps (48kHz/16-bit) DTS 2.0 768Kbps (48kHz/16-bit)

DISC INFO:

Disc Title: A_FOND_BLUEBIRDDisc Size: 39 453 990 867 bytesProtection: AACSBD-Java: NoExtras: 50Hz ContentBDInfo: 0.5.8

PLAYLIST REPORT:

Name: 00007.MPLSLength: 0:01:06.858 (h:m:s.ms)Size: 204 955 200 bytesTotal Bitrate: 24,52 Mbps

VIDEO:

Codec Bitrate Description ----- ------- ----------- MPEG-4 AVC Video 21761 kbps 1080p / 23,976 fps / 16:9 / High Profile 4.1

AUDIO:

Codec Language Bitrate Description ----- -------- ------- ----------- DTS Audio French 768 kbps 2.0 / 48 kHz / 768 kbps / 16-bitDTS Audio French 768 kbps 2.0 / 48 kHz / 768 kbps / 16-bit

SUBTITLES:

Codec Language Bitrate Description ----- -------- ------- ----------- Presentation Graphics French 0,175 kbps

FILES:

Name Time In Length Size Total Bitrate ---- ------- ------ ---- ------------- 00005.M2TS 0:00:00.000 0:01:06.858 204 955 200 24 509

CHAPTERS:

Number Time In Length Avg Video Rate Max 1-Sec Rate Max 1-Sec Time Max 5-Sec Rate Max 5-Sec Time Max 10Sec Rate Max 10Sec Time Avg Frame Size Max Frame Size Max Frame Time ------ ------- ------ -------------- -------------- -------------- -------------- -------------- -------------- -------------- -------------- -------------- -------------- 1 0:00:00.000 0:01:06.858 21 775 kbps 46 407 kbps 00:00:58.558 31 096 kbps 00:00:58.475 28 328 kbps 00:00:56.765 113 593 bytes 674 608 bytes 00:01:02.020

STREAM DIAGNOSTICS:

File PID Type Codec Language Seconds Bitrate Bytes Packets ---- --- ---- ----- -------- -------------- -------------- ------------- ----- 00005.M2TS 4113 (0x1011) 0x1B AVC 66,775 21 802 181 978 183 989 973 00005.M2TS 4352 (0x1100) 0x82 DTS fra (French) 66,775 769 6 418 432 37 608 00005.M2TS 4353 (0x1101) 0x82 DTS fra (French) 66,775 769 6 418 432 37 608 00005.M2TS 4608 (0x1200) 0x90 PGS fra (French) 66,775 0 1 462 15

QUICK SUMMARY:

Disc Title: A_FOND_BLUEBIRDDisc Size: 39 453 990 867 bytesProtection: AACSBD-Java: NoPlaylist: 00007.MPLSSize: 204 955 200 bytesLength: 0:01:06.858Total Bitrate: 24,52 MbpsVideo: MPEG-4 AVC Video / 21761 kbps / 1080p / 23,976 fps / 16:9 / High Profile 4.1Audio: French / DTS Audio / 2.0 / 48 kHz / 768 kbps / 16-bitAudio: French / DTS Audio / 2.0 / 48 kHz / 768 kbps / 16-bitSubtitle: French / 0,175 kbps

********************PLAYLIST: 00005.MPLS********************

Total Video Title Codec Length Movie Size Disc Size Bitrate Bitrate Main Audio Track Secondary Audio Track----- ------ ------- -------------- -------------- ------- ------- ------------------ ---------------------00005.MPLS AVC 0:00:48 151 076 544 39 453 990 867 24,79 22,01 DTS 2.0 768Kbps (48kHz/16-bit) DTS 2.0 768Kbps (48kHz/16-bit)

DISC INFO:

Disc Title: A_FOND_BLUEBIRDDisc Size: 39 453 990 867 bytesProtection: AACSBD-Java: NoExtras: 50Hz ContentBDInfo: 0.5.8

PLAYLIST REPORT:

Name: 00005.MPLSLength: 0:00:48.757 (h:m:s.ms)Size: 151 076 544 bytesTotal Bitrate: 24,79 Mbps

VIDEO:

Codec Bitrate Description ----- ------- ----------- MPEG-4 AVC Video 22011 kbps 1080p / 23,976 fps / 16:9 / High Profile 4.1

AUDIO:

Codec Language Bitrate Description ----- -------- ------- ----------- DTS Audio French 768 kbps 2.0 / 48 kHz / 768 kbps / 16-bitDTS Audio French 768 kbps 2.0 / 48 kHz / 768 kbps / 16-bit

SUBTITLES:

Codec Language Bitrate Description ----- -------- ------- ----------- Presentation Graphics French 0,240 kbps

FILES:

Name Time In Length Size Total Bitrate ---- ------- ------ ---- ------------- 00004.M2TS 0:00:00.000 0:00:48.757 151 076 544 24 767

CHAPTERS:

Number Time In Length Avg Video Rate Max 1-Sec Rate Max 1-Sec Time Max 5-Sec Rate Max 5-Sec Time Max 10Sec Rate Max 10Sec Time Avg Frame Size Max Frame Size Max Frame Time ------ ------- ------ -------------- -------------- -------------- -------------- -------------- -------------- -------------- -------------- -------------- -------------- 1 0:00:00.000 0:00:48.757 22 029 kbps 45 980 kbps 00:00:40.415 30 002 kbps 00:00:40.331 26 748 kbps 00:00:36.703 114 949 bytes 603 240 bytes 00:00:43.918

STREAM DIAGNOSTICS:

File PID Type Codec Language Seconds Bitrate Bytes Packets ---- --- ---- ----- -------- -------------- -------------- ------------- ----- 00004.M2TS 4113 (0x1011) 0x1B AVC 48,674 22 128 134 629 229 732 363 00004.M2TS 4352 (0x1100) 0x82 DTS fra (French) 48,674 769 4 680 704 27 426 00004.M2TS 4353 (0x1101) 0x82 DTS fra (French) 48,674 769 4 680 704 27 426 00004.M2TS 4608 (0x1200) 0x90 PGS fra (French) 48,674 0 1 462 15

QUICK SUMMARY:

Disc Title: A_FOND_BLUEBIRDDisc Size: 39 453 990 867 bytesProtection: AACSBD-Java: NoPlaylist: 00005.MPLSSize: 151 076 544 bytesLength: 0:00:48.757Total Bitrate: 24,79 MbpsVideo: MPEG-4 AVC Video / 22011 kbps / 1080p / 23,976 fps / 16:9 / High Profile 4.1Audio: French / DTS Audio / 2.0 / 48 kHz / 768 kbps / 16-bitAudio: French / DTS Audio / 2.0 / 48 kHz / 768 kbps / 16-bitSubtitle: French / 0,240 kbps

hdpicture.ru


Смотрите также